主页 > 电影 >  系统交流群:6群【263392326】⑤群372525518满[①群150869616满][②群196060338满] [③群324782312满]④群[331401107满]

浏览

回复

夺路而逃 [4K版/普通话/内嵌中英字幕] Escape.Rout

作者:好东东 分类:电影 标签: 夺路而逃

夺路而逃 [4K版/普通话/内嵌中英字幕] Escape.Rout,系统爱好者

◎译  名 夺路而逃
◎片  名 Escape Route
◎年  代 2016
◎国  家 中国
◎类  别 喜剧/动作
◎语  言 普通话
◎字  幕 简体中文/英文
◎IMDb评分  N/A
◎IMDb链接  N/A
◎文件格式 x264 + AAC
◎视频尺寸 3840 x 1608
◎文件大小 1CD 4.51 GiB
◎片  长 1h 38mn
◎导  演 吴林 Ng Lam
◎主  演 张一山 Zray ...周晓易
      何云伟 Yunwei He
      李菁 Jing Li
      朴河宣 Ha-seon Park
      徐少强 Norman Chu
      

◎简  介


  电影讲述了不学无术醉生梦死的富二代周晓易(张一山饰)在父亲去世以后经历了一场"超级宿醉"。醒来之后,发现自己与好友(何云伟饰)开启了一段如梦非梦的离奇经历。在这段旅途中,他遇到了诸如三川国公主(朴河宣饰),流民(李菁饰)等各式各样的人物,同时,懵懂中的他也被一双看不见的幕后之手推动,在漩涡中他不断变换着不同的身份,经历了各种奇遇。而在这样的经历中,他也慢慢成长,赢得了众人的尊重,也终于理解了承担与责任的意义,同时,甜美的爱情在向他挥手……

  1. General
  2. Format                         : Matroska
  3. Format version                 : Version 4 / Version 2
  4. File size                      : 4.51 GiB
  5. Duration                       : 1h 38mn
  6. Overall bit rate               : 6 534 Kbps
  7. Encoded date                   : UTC 2016-11-24 04:44:59
  8. Writing application            : mkvmerge v7.1.0 ('Good Love') 32bit built on Jul 27 2014 12:59:18
  9. Writing library                : libebml v1.3.0 + libmatroska v1.4.1
  10.  
  11. Video
  12. ID                             : 1
  13. Format                         : AVC
  14. Format/Info                    : Advanced Video Codec
  15. Format profile                 : High@L5.1
  16. Format settings, CABAC         : Yes
  17. Format settings, ReFrames      : 3 frames
  18. Codec ID                       : V_MPEG4/ISO/AVC
  19. Duration                       : 1h 38mn
  20. Bit rate                       : 6 468 Kbps
  21. Width                          : 3 840 pixels
  22. Height                         : 1 600 pixels
  23. Display aspect ratio           : 2.40:1
  24. Frame rate mode                : Constant
  25. Frame rate                     : 25.000 fps
  26. Color space                    : YUV
  27. Chroma subsampling             : 4:2:0
  28. Bit depth                      : 8 bits
  29. Scan type                      : Progressive
  30. Bits/(Pixel*Frame)             : 0.042
  31. Stream size                    : 4.47 GiB (99%)
  32. Writing library                : vtc-test
  33. Default                        : Yes
  34. Forced                         : No
  35. Color range                    : Limited
  36. Color primaries                : BT.709
  37. Transfer characteristics       : BT.709
  38. Matrix coefficients            : BT.709
  39.  
  40. Audio
  41. ID                             : 2
  42. Format                         : AAC
  43. Format/Info                    : Advanced Audio Codec
  44. Format profile                 : HE-AAC / LC
  45. Codec ID                       : A_AAC
  46. Duration                       : 1h 38mn
  47. Bit rate                       : 64.0 Kbps
  48. Channel(s)                     : 2 channels
  49. Channel positions              : Front: L R
  50. Sampling rate                  : 44.1 KHz / 22.05 KHz
  51. Frame rate                     : 21.533 fps (1024 spf)
  52. Compression mode               : Lossy
  53. Stream size                    : 45.3 MiB (1%)
  54. Default                        : Yes
  55. Forced                         : No
  56.  
  57.  
复制代码

夺路而逃 [4K版/普通话/内嵌中英字幕] Escape.Rout,系统爱好者 夺路而逃 [4K版/普通话/内嵌中英字幕] Escape.Rout,系统爱好者
夺路而逃 [4K版/普通话/内嵌中英字幕] Escape.Rout,系统爱好者 夺路而逃 [4K版/普通话/内嵌中英字幕] Escape.Rout,系统爱好者
夺路而逃 [4K版/普通话/内嵌中英字幕] Escape.Rout,系统爱好者 夺路而逃 [4K版/普通话/内嵌中英字幕] Escape.Rout,系统爱好者
夺路而逃 [4K版/普通话/内嵌中英字幕] Escape.Rout,系统爱好者 夺路而逃 [4K版/普通话/内嵌中英字幕] Escape.Rout,系统爱好者
夺路而逃 [4K版/普通话/内嵌中英字幕] Escape.Rout,系统爱好者 夺路而逃 [4K版/普通话/内嵌中英字幕] Escape.Rout,系统爱好者


 
磁力链接链接:http://pan.baidu.com/s/1nvS6iA9 密码:h6be
[field:softlinks/]
友荐云推荐

相关文章

评论列表(网友评论仅供网友表达个人看法,并不表明本站同意其观点或证实其描述)
最新文章
热门文章
随机文章